Eng De Fr Ru Es Pt Pl

igo android 480 800 resolution 1–20 of 1000 Search Results

Top FAQ Download Guide

Size S | L Torrent Title Results for "igo android 480 800 resolution": 1–20 of 1000

Top result
Lots of files

igo android 480 800 resolution Full Download

Top result
Lots of files

igo android 480 800 resolution.zip Download
444 MB
1 File
0 | 0 IGo 800 x 480

Aug 2011
1.2 GB
1 File
0 | 0 iGO Navigation Sat Nav for Android 2.2+ 800 x 600 full screen re
...iGO Navigation system for the Android operating system, this version is the large screen version 800 x 400 Resolution, this version will...
...iGO folder (with...
...iGO folder...
...Android 2.2 which has a...

Aug 2011
1.5 GB
146 Files
0 | 0 iGO My way Android - v8.4.2.139242 (Greek Voices) all resolution
...iGO My way Android - v8.4.2.139242 (Greek Voices) all resolutions includes greek voices perfectly working on my phone. includes instructions. Enjoy...

Apr 2012
166 MB
54 Files
67 | 2 iGO Primo 9 6 22 317625 - GooglePlay 25 Jul 2013 [ANDROID-ZONE]
...Android 2.3+ Overview: iGO primo®, the flagship OEM product in the iGO Navigation range combines...
...iGO World Maps (fbl, fda, fpa, fsp, ftr, hnr, 3dl, 3dc, poi, dem) http://android...
... Resolution: 800x480 and...
...iGO Primo 9.6.22.317625 - GooglePlay - 25 July 2013 Requirements...

Jul 2013
227 MB
4 Files
3 | 0 iGO Primo 9.6.29.3889 for Android
...iGO Primo 9.6.29.3889 for Android ================ [COVER:] ================...
... ================ iGO Primo 9.6.29.3889 for Android .apk | Android | 232 MB New version of GPS navigation on iGO, the market leader in...
...Igo remain easily accessible to use navigation system. With an intuitive...
...IGO, the...

May 2014
2.5 GB
1 File
2 | 0 iGO Android Europe 2012.rar
...iGo My Way 8.4.3 sa mapama Evrope Licencirane Zgrade su u 3D formatu, ali samo su zemlje EU pokrivene, i to...
... 3. Kopirajte iGO fasciklu na sd karticu 4. Izbrisite LICENCE fasciklu i zamenite je sa drugom koja se nalazi u Installer...
...iGO aplikaciju i konfigurisite 6. Srecan put!...
... - - - - - - - - - - - - - - - - - - - - - - - - - - - - - - - - - - - - - - - - - - iGo My Way 8.4.3 with European Maps 2012 Licence...

Mar 2012
20 MB
4 Files
3 | 0 Android Magazine UK - 75 Quick Fixes and Upgrades for Your Phone and Tablet Plus Android Gaming Revolution (Is
...Android Magazine UK - 75 Quick Fixes and Upgrades for Your Phone and Tablet Plus Android Gaming Revolution (Issue 28...
...Android plus group tests and features. The first magazine of its kind, Apps Magazine will be dedicated to matching the incredible...
... Android Magazine UK – Issue 28, 2013 English | 100 pages | True PDF | 23.00 Mb PS :   If You got an error while extracting...
...Android Magazine UK - 75 Quick Fixes and Upgrades for Your Phone and Tablet Plus Android Gaming Revolution (Issue 28, 2013)...

Aug 2013
285 MB
54 Files
1 | 0 Igo Primo 9 6 22 317625 Googleplay 25 Jul 2013 Android Zone

Sep 2013
1.5 GB
1 File
1 | 0 iGO My way Android - v8.4.2.139242.rar
...Only for testing purposes. if ypu like it, buy it to support the producers...

Feb 2011
3 GB
847 Files
1 | 0 iGO Primo 9.6.7 для Android (2012) КПК
... Title: iGO Primo 9.6.7 for Android (2012) PDA Publication Type: Disinfected Year: 2012 Version: 9.6.7 Language: Russian only...
...Igo remain easily accessible to use navigation system...
...iGO / capture. speedcams Russian voice. Ability to turn GPS from Primo...
...Android 1.5 and up Installation Instructions: Instructions are in the hand. Description: A new version of GPS navigation...

Aug 2012
791 MB
327 Files
1 | 0 iGO Primo Android 9.6.22.317625 Brazil - atualizado 19.09.2013 (
...iGO e Apagar a pasta da Versão anterior (Somente se você já tinha ele instalado) 2º) Copiar a Pasta LoquendoTTS para Memória Interna. Atenção...
...iGO para Cartão SD ou External Card 4º) Instalar (9.6.22.317625 - 1 - scan_DCIM.apk) dentro da...
...iGO 5º) Instalar (loquendo.tts-1.apk) contido na pasta LoquendoTTS. Click em Concluído. Configuração do LoquendoTTS Configuraçôes -> Idioma e...
...ANDROID: 2.3 ou superior. CyanogenMod não Suportado. Resolução 1920x1080 1º) Desinstalar a...

Sep 2013
681 MB
225 Files
1 | 0 Download iGO Primo Android 9.6.22.290143 - atualizado 26/04/2013 Torrent
...iGO Primo Android 9.6.22.290143 - atualizado 26/04/2013...
...iGO Primo Android 9.6.22.290143 - atualizado 26/04/2013 <img src="http://imageshack.us/a/img202/1162/20130426193159.png" alt="Image Hosted by...
...iGO...
...iGO e LoquendoTTS para Cartão SD 3º) Instalar 9.6.22.290143...

Apr 2013
1.8 GB
3 Files
1 | 0 iGO Primo 2 0 for Android FiLELiST

Dec 2012
29 MB
54 Files
1 | 0 Igo Primo 9 6 22 317625 Googleplay 25 Jul 2013 Android Zone

Sep 2013
378 MB
15 Files
0 | 0 Endhiran ~ DVD Rip - 720 X 480 High Resolution Video Songs - Tea
...480 High Resolution Video Songs Team !ST - !ST_Pra$ath Ripping Infor Code...
...Resolution : 24 bits Bits/(Pixel*Frame) : 0.146 Audio ID...
...Resolution : 16 bits Stream size : 4.72 MiB (8%) Alignment...
...480 pixels Display aspect ratio : 1.500 Frame rate : 29.970 fps Standard...

Oct 2010
378 MB
15 Files
0 | 0 Endhiran - 2010 - DVD Rip - 720 X 480 High Resolution Video Song
...480 High Resolution Video Songs - Team TXD www.tamilxdream.net Ripping Information...
...Resolution : 24 bits Bits/(Pixel*Frame) : 0.146 Audio ID...
...Resolution : 16 bits Stream size : 4.72 MiB (8%) Alignment...
...480 pixels Display aspect ratio : 1.500 Frame rate : 29.970 fps Standard...

Oct 2010
182 MB
4 Files
0 | 0 iGO Primo Israel 9.6.29.357724 Android [ANDROID-ZONE]
...iGO Primo Israel 9.6.29.357724 Android [ANDROID-ZONE]...
... Asus tablet models support (k00f and K004) --- If iGO can not start then Force stop add text...
... Install instruction: 1. Completely uninstall any previous version of iGO. 2. Paste iGO folder to root sd card 3. Add maps, POI, TMC...
...android] fullscreen=1 tablet=0...

Feb 2014
187 MB
40 Files
0 | 0 iGO Primo Israel 9.6.29.357724 Android - 7 Jan 2014 [ANDROID-ZONE]
...iGO Primo Israel 9.6.29.357899 - Android - 7 Jan 2014 - Torrent...
... --- If iGO can not start then Force stop add text for your device. Example: Nexus 7...
... 1. Completely uninstall any previous version of iGO. 2. Paste iGO folder to root sd card 3. Add maps, POI, TMC...
...android] fullscreen=1 tablet=0...

Jan 2014
208 MB
1 File
0 | 0 iGO Primo 2.4 9.6.29.383117 for Android - 3 April 2014 [ANDROID-ZONE].rar
...iGO Primo 2.4 9.6.29.383117 for Android - 3 April 2014 [ANDROID-ZONE] Requirements: Android 2.2+...
... Totaly uninstall any previous Primo version before Installation! Copy all rar's content to "iGO" folder on SDcard: your_device/sdcard...
...iGO. Install APK (included). For tablet, use HD.apk (included). LANG and VOICE http...
... Install instruction: 1. Completely uninstall any previous version of iGO. 2. Paste iGO folder to root sd...

Apr 2014
166 MB
1 File
0 | 0 iGO Primo Israel 9.6.29.357899 - Android - 8 Jan 2014 [ANDROID-ZONE].rar
...iGO Primo Israel 9.6.29.357899 - Android - 8 Jan 2014 - Torrent --- If iGO can not...
...android...
... --- Customize the display with these combinations in sys.txt --- [android...
... [android] fullscreen=1 tablet=0 [interface] vga=1 [rawdisplay] driver=engine highres=1 --- LANG and VOICE http://android-zone.org/viewtopic.php?f=25&t=31304...

Jan 2014