Eng De Fr Ru Es Pt Pl

igo android 480 800 resolution 1–20 of 1000 Search Results

Top FAQ Download Guide

Size S | L Torrent Title Results for "igo android 480 800 resolution": 1–20 of 1000

Top result
Lots of files

igo android 480 800 resolution Full Download

Top result
Lots of files

igo android 480 800 resolution.zip Download
444 MB
1 File
0 | 0 IGo 800 x 480.rar

Aug 2011
166 MB
1 File
157 | 0 IGO Primo 2 4 9 6 29 379219 Android - 21 Mar 2014
...iGO Primo 2.4 9.6.29.379219 Android - (21 Mar 2014) - torrent Requirements: Android 2.2+ Overview: Complete GPS Navigation in 3D...
...igo-primo-2-4-9-6-29-341779-ans-25-oct-2013-android-zone-rar-t8644497.html#comment">15...
...igo-primo-2-4-9-6-29-341779-ans-25-oct-2013-android-zone-rar-t8644497.html'>...
...android-zone-rar-t8644497.html" class="torType zipType">...

Apr 2014
1.5 GB
146 Files
0 | 0 Igo My Way Android - V8.4.2.139242 (greek Voices) All Resolution
...iGO My way Android - v8.4.2.139242 (Greek Voices) all resolutions includes greek voices perfectly working on my phone. includes instructions. Enjoy...

Apr 2012
182 MB
4 Files
0 | 0 iGO Primo Israel 9.6.29.357724 Android [ANDROID-ZONE]
...iGO Primo Israel 9.6.29.357724 Android [ANDROID-ZONE]...
... Asus tablet models support (k00f and K004) --- If iGO can not start then Force stop add text...
... Install instruction: 1. Completely uninstall any previous version of iGO. 2. Paste iGO folder to root sd card 3. Add maps, POI, TMC...
...android] fullscreen=1 tablet=0...

Feb 2014
1.6 GB
1 File
0 | 0 iGO Primo 8.5.xx for CarTrek 800 / 1000 - Western Europe Maps an
...800. Will probably also work on a CarTrek 1000....
...800. Will probably also work on a CarTrek 1000....
...800. Will probably also work on a CarTrek 1000. I:\MobileNavigator\content\map...

Jul 2010
378 MB
15 Files
0 | 0 [TXD_V.Song] Endhiran 2010 ~ DVD Rip - 720 X 480 High Resolution Video Songs - TeamTXD - Prasath_Max
...480 High Resolution Video Songs - Team TXD www.tamilxdream.net Ripping Information...
...Resolution : 24 bits Bits/(Pixel*Frame) : 0.146 Audio ID...
...Resolution : 16 bits Stream size : 4.72 MiB (8%) Alignment...
...480 pixels Display aspect ratio : 1.500 Frame rate : 29.970 fps Standard...

Oct 2010
378 MB
15 Files
0 | 0 Endhiran ~ DVD Rip - 720 X 480 High Resolution Video Songs - Tea
...480 High Resolution Video Songs Team !ST - !ST_Pra$ath Ripping Infor Code...
...Resolution : 24 bits Bits/(Pixel*Frame) : 0.146 Audio ID...
...Resolution : 16 bits Stream size : 4.72 MiB (8%) Alignment...
...480 pixels Display aspect ratio : 1.500 Frame rate : 29.970 fps Standard...

Oct 2010
1.5 GB
1 File
0 | 0 高德(800 480

Jan 2011
623 MB
165 Files
0 | 0 Wvga 480 800
...---Torrent downloaded from torrent cache at http://torrage.com...

Jan 2011
66.6 MB
1 File
0 | 0 [ ][pv] Op May 039 S Ready Br Go [800 480](2010 07 28)
...---Torrent downloaded from torrent cache at http://torrage.com...

Jan 2011
56.5 MB
642 Files
0 | 0 480-800

Jan 2011
378 MB
15 Files
0 | 0 Endhiran 2010 Dvd Rip 720 X 480 High Resolution Video Song

Oct 2010
540 MB
1 File
0 | 0 Prison Break S03 E03 [BBUSAFFT] Resolution = 720 X 480 AVI
...Resolution = 720 x 480 MPEG 2 / AVI Season 3 Episode 3 3 x 03 October 1 2007...
...RESOLUTION = 720 X 480 AVI...
...Resolution = 720 x 480 MPEG 2 / AVI Season 3 Episode 3 3 x 03 October 1 2007...

Oct 2007
26.3 MB
153 Files
0 | 0 Animals 480 X 800

Aug 2013
29 MB
54 Files
0 | 0 Igo Primo 9 6 22 317625 Googleplay 25 Jul 2013 Android Zone
...Igo Primo 9 6 22 317625 Googleplay 25 Jul 2013 Android Zone...

Dec 2013
29.1 MB
54 Files
0 | 0 Igo Primo 9 6 22 317625 Googleplay 25 Jul 2013 Android Zone

Oct 2013
285 MB
54 Files
0 | 0 Igo Primo 9 6 22 317625 Googleplay 25 Jul 2013 Android Zone

Sep 2013
27.7 MB
54 Files
0 | 0 Igo Primo 9 6 22 317625 Googleplay 25 Jul 2013 Android Zone

Oct 2013
1.5 GB
3 Files
0 | 0 iGO R3 Navteq Europe Maps 2012.Q1 for Android

Jul 2012
10.3 MB
1 File
0 | 0 800x600 (1280x800, 1024x600) Skin Igo Android
...iGO Android Extrair e Copiar para pasta iGO os Arquivos: branding.gro, data.gro e Sys....

Jan 2013