Eng De Fr Ru Es Pt Pl

igo android 480 800 resolution 1–20 of 1000 Search Results

Top FAQ Download Guide

Size S | L Torrent Title Results for "igo android 480 800 resolution": 1–20 of 1000

Top result
Lots of files

igo android 480 800 resolution Full Download

Top result
Lots of files

igo android 480 800 resolution.zip Download
1.2 GB
1 File
0 | 0 iGO Navigation Sat Nav for Android 2.2+ 800 x 600 full screen re
...iGO Navigation system for the Android operating system, this version is the large screen version 800 x 400 Resolution, this version will...
...iGO folder (with...
...iGO folder...
...Android 2.2 which has a...

Aug 2011
208 MB
1 File
2 | 0 iGO Primo 2.4 9.6.29.383117 for Android - 3 April 2014 [ANDROID-ZONE].rar
...iGO Primo 2.4 9.6.29.383117 for Android - 3 April 2014 [ANDROID-ZONE] Requirements: Android 2.2+...
... Totaly uninstall any previous Primo version before Installation! Copy all rar's content to "iGO" folder on SDcard: your_device/sdcard...
...iGO. Install APK (included). For tablet, use HD.apk (included). LANG and VOICE http...
... Install instruction: 1. Completely uninstall any previous version of iGO. 2. Paste iGO folder to root sd...

Apr 2014
227 MB
4 Files
3 | 0 iGO Primo 9.6.29.3889 for Android
...iGO Primo 9.6.29.3889 for Android ================ [COVER:] ================...
... ================ iGO Primo 9.6.29.3889 for Android .apk | Android | 232 MB New version of GPS navigation on iGO, the market leader in...
...Igo remain easily accessible to use navigation system. With an intuitive...
...IGO, the...

May 2014
187 MB
40 Files
1 | 0 iGO Primo Israel 9.6.29.357724 Android - 7 Jan 2014 [ANDROID-ZONE]
...iGO Primo Israel 9.6.29.357899 - Android - 7 Jan 2014 - Torrent...
... --- If iGO can not start then Force stop add text for your device. Example: Nexus 7...
... 1. Completely uninstall any previous version of iGO. 2. Paste iGO folder to root sd card 3. Add maps, POI, TMC...
...android] fullscreen=1 tablet=0...

Jan 2014
214 MB
1 File
1 | 0 iGO Primo (2.4) Israel 9.6.29.390522 Android - 28 April 2014 [ANDROID-ZONE].rar
...iGO Primo 2.4 Israel 9.6.29.390522 Android - 28 April 2014 - torrent Requirements: Android 2.2+ Overview...
... 1. Completely uninstall any previous version of iGO. 2. Paste iGO folder to root sd card 3. Add data.zip to iGO...
...For LANGUAGE and VOICE visit: http://android-zone.org/viewtopic.php?f=25&...
...iGO Primo 2.4 Israel 9.6.29.390522 Android - 28 April 2014 - torrent Requirements: Android 2.2+ Overview: Complete GPS Navigation in 3D...

Apr 2014
3.8 GB
750 Files
2 | 0 Android iGO Primo 2014 v9.6.29.353 Europe Multi
...iGO Primo 2014 v9.6.29.353 Europe Multi...
...Igo remain easily accessible to use...
...iGO folder to the root of the memory card (sdcard / iGO) install iGO.v...
...iGO - content - map Year: 2014 Genre: Navigation Coverage : Full Europe Language: Multilingual Tabletka: not required...

Apr 2014
3 GB
847 Files
2 | 0 iGO Primo 9.6.7 для Android (2012) КПК
... Title: iGO Primo 9.6.7 for Android (2012) PDA Publication Type: Disinfected Year: 2012 Version: 9.6.7 Language: Russian only...
...Igo remain easily accessible to use navigation system...
...iGO / capture. speedcams Russian voice. Ability to turn GPS from Primo...
...Android 1.5 and up Installation Instructions: Instructions are in the hand. Description: A new version of GPS navigation...

Aug 2012
188 MB
1 File
1 | 0 ANDROID iGo/Motonav Navigation ex-YU 2011 torrent
...iGo navigacija za Android sa mapama novembar 2011 / sve dryave bivse Jugoslavije sa detaljnim ulicama gradova. Radi na...
...iGo navigation for Android with maps from Novembre 2011, countries of Former Yugoslavia (Serbia, Bosnia (both parts, Bosnian and Serbian), Montenegro...
...Android 4.x.x) 1.Otpakujte .rar fajl 2.Kopirajte folder Motonav na SD karticu...
...Android 4.x.x) 1. Unpack...

Mar 2012
1.5 GB
1 File
1 | 0 iGO My way Android - v8.4.2.139242.rar
...Only for testing purposes. if ypu like it, buy it to support the producers...

Feb 2011
1.3 GB
140 Files
1 | 0 iGO for HTC Android
...iGO navi. Works Android Tested Legend, Desire, Desire HD. With Estonia regio 07.2010...

Nov 2010
306 MB
46 Files
1 | 0 iGO for android mobile.
...iGO navigation to android phone with 320x240 resolution e.g: Sonyericsson Xperia x8 Install: Just copy the...
...iGO folder to SD card root folder. Enable the any install source without market. open .apk file on mobile and install it....

Jun 2011
70 MB
3 Files
1 | 0 iGO Android with Israel map
...iGO My Way 8.4.2.139242 for Android with Israel map. Notes: - This version of iGO is installed and working on my Samsung Galaxy S...
... - In my opinion it is not the best offline navigation out there but its the only one i found searching the net. - If this version of iGO does not suit your...
...iGO/content/map with other versions of iGO. Installation instruction...
...iGO" in your mobile under /mnt/sdcard (so it will be like /mnt/sdcard/iGO) run iGO on your mobile, after a short wizard setup it's ready to use. Enjoy....

Jul 2011
121 MB
1 File
1 | 0 iGO My Way 8 4 2 139242 Android Multiscreen rar

Jul 2012
166 MB
54 Files
1 | 0 iGO Primo 9 6 22 317625 - GooglePlay 25 Jul 2013 [ANDROID-ZONE]
...Android 2.3+ Overview: iGO primo®, the flagship OEM product in the iGO Navigation range combines...
...iGO World Maps (fbl, fda, fpa, fsp, ftr, hnr, 3dl, 3dc, poi, dem) http://android...
... Resolution: 800x480 and...
...iGO Primo 9.6.22.317625 - GooglePlay - 25 July 2013 Requirements...

Jul 2013
378 MB
15 Files
0 | 0 Endhiran - 2010 - DVD Rip - 720 X 480 High Resolution Video Song
...480 High Resolution Video Songs - Team TXD www.tamilxdream.net Ripping Information...
...Resolution : 24 bits Bits/(Pixel*Frame) : 0.146 Audio ID...
...Resolution : 16 bits Stream size : 4.72 MiB (8%) Alignment...
...480 pixels Display aspect ratio : 1.500 Frame rate : 29.970 fps Standard...

Oct 2010
378 MB
15 Files
0 | 0 Endhiran ~ DVD Rip - 720 X 480 High Resolution Video Songs - Tea
...480 High Resolution Video Songs Team !ST - !ST_Pra$ath Ripping Infor Code...
...Resolution : 24 bits Bits/(Pixel*Frame) : 0.146 Audio ID...
...Resolution : 16 bits Stream size : 4.72 MiB (8%) Alignment...
...480 pixels Display aspect ratio : 1.500 Frame rate : 29.970 fps Standard...

Oct 2010
182 MB
4 Files
0 | 0 iGO Primo Israel 9.6.29.357724 Android [ANDROID-ZONE]
...iGO Primo Israel 9.6.29.357724 Android [ANDROID-ZONE]...
... Asus tablet models support (k00f and K004) --- If iGO can not start then Force stop add text...
... Install instruction: 1. Completely uninstall any previous version of iGO. 2. Paste iGO folder to root sd card 3. Add maps, POI, TMC...
...android] fullscreen=1 tablet=0...

Feb 2014
166 MB
1 File
0 | 0 iGO Primo Israel 9.6.29.357899 - Android - 8 Jan 2014 [ANDROID-ZONE].rar
...iGO Primo Israel 9.6.29.357899 - Android - 8 Jan 2014 - Torrent --- If iGO can not...
...android...
... --- Customize the display with these combinations in sys.txt --- [android...
... [android] fullscreen=1 tablet=0 [interface] vga=1 [rawdisplay] driver=engine highres=1 --- LANG and VOICE http://android-zone.org/viewtopic.php?f=25&t=31304...

Jan 2014
26.3 MB
153 Files
0 | 0 Animals 480 X 800

Aug 2013
1.6 GB
1 File
0 | 1 iGO Primo 8.5.xx for CarTrek 800 / 1000 - Western Europe Maps an
...800. Will probably also work on a CarTrek 1000....

Jul 2010