Eng De Fr Ru Es Pt Pl

sprawdziany matematyka z plusem 1 gimnazjum procenty 1–20 of 1000 Search Results

Top FAQ Download Guide

Size Torrent Title Results for "sprawdziany matematyka z plusem 1 gimnazjum procenty": 1–20 of 1000

Top result
Lots of files

sprawdziany matematyka z plusem 1 gimnazjum procenty Full Download

Top result
Lots of files

sprawdziany matematyka z plusem 1 gimnazjum procenty.zip Download
16 GB
298 Files
Dragonball Z Seasons 1-9 Remastered
Here is Dragon Ball Z seasons 1-9 remastered mkv files sorry
Apr 2013
16 GB
298 Files
Dragonball Z Seasons 1-9 Remastered MKV
Dragon Ball Z seasons 1-9 Remastered MKV Sorry
Apr 2013
12 GB
83 Files
Dragon_Ball_Z_Vol.1
... DRAGON BALL Z VOL 1 SISTEMA: PAL AUDIO: Dolby Digital ...
... DE ASPECTO: 1.33:1 / 4:3 DRAGON BALL Z VOL 1SISTEMA: PAL ...
... .SUBTÍTULOS: Español. RELACIÓN DE ASPECTO: 1.33:1 / 4:3 ...
Oct 2012
13 MB
107 Files
Dragon Ball Z Kai 1-98 English Subs
... /8863603 kickass.to/dragon-ball-z-kai-bluray-1080p-x264-aac ...
... /8863572 kickass.to/dragon-ball-z-kai-bluray-1080p-x264-aac ...
... /torrent/8863603kickass.to/dragon-ball-z-kai-bluray-1080p-x264-aac ...
... /torrent/8863572kickass.to/dragon-ball-z-kai-bluray-1080p-x264-aac ...
11 months ago
10 GB
40 Files
Dragon Ball Z Season 1 (Vegeta Saga) (1996)
Includes Dual/Tri Audio for episodes 1-39. Very good quality.
Apr 2011
5.7 GB
25 Files
[Z-Z] Blood + 1 - 25 DVDRip (Dual Audio)
... searching for her origins. Episodes 1-25 Dual Audio with english ...
Nov 2008
11 GB
40 Files
Download Dragonball Z Season 1 Vegeta Saga (1-39)uncut.pazzioTorrent

Apr 2009
11 GB
17 Files
Dragonball Z - Episodes 1-17 1080p [Dual Audio]
... Resolution__________________1920x1080 Audio Track 1_______________Original Japanese Audio, ...
... seventeen episodes of Dragonball Z Remastered in HD Quality....
... Resolution__________________1920x1080Audio Track 1_______________Original Japanese Audio, with ...
8 months ago
2.4 GB
39 Files
Dragon Ball Z Episode 1-39 Season 1 BRRip x264 480p [Dual-Audio] [Eng-Jap] By [Mughal]

Jan 2013
61 MB
16 Files
Jay-Z - Vol. 1 In My Lifetime 1997
Jay-Z - Vol. 1 In My Lifetime Jay-Z - Vol. 1 In My Lifetime
Nov 2010
5 MB
1 Files
CPU-Z v.1.55 EN
... CPU-Z 1 55 setup CPU-Z is a freeware that gathers ...
... devices of your system. CPU-Z 1.55 Download CPU * Name and ...
... and Remove Since version 1.51, CPU-Z includes an installer. The ...
... Panel), or choose Uninstall CPU-Z from Start menu, Programs, CPUID ...
Jul 2010
2.3 GB
10 Files
Dragon Ball Z Cap 1-10 ()

Apr 2007
9.4 GB
2 Files
Mazinger Edition Z - Box 1 - Ep. 01-09
... .se File Name : Mazinger Edition Z - Disco 1 - Ep. 01-05 [BDRip ...
... By MaX].mkvMazinger Edition Z - Disco 2 - Ep. 06-09 ...
... /dLJbFZy1vn File Name : Mazinger Edition Z - Disco 1 - Ep. 01-05 [BDRip ...
... By MaX].mkv Mazinger Edition Z - Disco 2 - Ep. 06-09 ...
Mar 2013
16 GB
292 Files
Dragon ball Z episode 1-291
... Dragon ball Z Episode (1-291) 480pINFO:Format : MKV...
... /TRAILER SCREENSHOTS: Dragon ball Z Episode (1-291) 480p Format : MKV File ...
... /title/tt0214341/ TRAILER : Dragon ball Z Episode (1-291) 480p Format : MKV ...
Jun 2013
3.9 GB
13 Files
[C.U.T.E] Powerpuff Girls Z episodes 1-12 Batch 10bit

Jan 2012
803 MB
5 Files
Tranzor Z (Ep 1 3)
Anime : Other : VHS quality : English Clouds of doom are swirling around Earth and good citizens are worried. The vile, infamous Dr. Demon seems to be gaining strength. Can Earth be saved? The ultimate answer is up to the mighty Tranzor Z.
May 2007
68 GB
337 Files
[TBox] Dragon Ball Z Full 1-291(Subbed Jap Vers)
... of the original Dragonball Z episodes numbered 1-291 unedited, uncut, in ...
Apr 2008
704 MB
2 Files
[C.U.T.E] Powerpuff Girls Z episodes 1-2 Batch 10bit English Dub
... at bottom Enjoy Video ID : 1 Format : AVC Format/Info : Advanced ...
... / ip_ratio=1.40 / pb_ratio=1.30 / aq=1:1.10 Language : English ...
... mode : Lossy Stream size : 29.1 MiB (8%) Language : English Audio ...
... mode : Lossy Stream size : 29.1 MiB (8%) Language : Thai Pictures ...
Jan 2012
26 GB
99 Files
[DeadFish] DragonBall Z - Part 1 - Series - Batch [DVD][480p][MP4][AAC]
... | RSS | IRC | XDCC Dragon Ball Z | ドラゴンボールZ Goku is back ...
... -lucky Saiyan he is. Episodes: 1 - 99 Subs: DBNL Codec: 8bit ...
... at torcache.net/ Dragon Ball Z | ドラゴンボム...
... -lucky Saiyan he is.Episodes: 1 - 99Subs: DBNLCodec: 8bit ...
Dec 2012
6.4 MB
11 Files
The War Z V 1 0 +12 Trainer[Retro]

Jan 2013