Eng De Fr Ru Es Pt Pl

video gratis de mujeres viniendose 1–20 of 1000 Search Results

Top FAQ Download Guide

Size S | L Torrent Title Results for "video gratis de mujeres viniendose": 1–20 of 1000

Top result
Lots of files

video gratis de mujeres viniendose Full Download

Top result
Lots of files

video gratis de mujeres viniendose.zip Download
2.3 MB
1 File
0 | 1 Download Keyword Elite - Video Tutorial + Manual de Uso GRATIS [en espaol]

Jan 2009
4.7 MB
1 File
0 | 1 Affiliate Elite - Video Tutorial + Manual de Uso GRATIS en espaol rar torrent

Jan 2009
2.3 MB
1 File
0 | 0 Keyword Elite - Video Tutorial + Manual de Uso GRATIS en espaol

Jan 2009
57.1 MB
1 File
0 | 0 VIDEO DE CUL TEENS JEUNES 18-20anS une fille de 25ans au petit cul se fait defoncer le cul amateur x gratis amatrices byb3nd4b0ng.wmv.torrent
...VIDEO DE CUL TEENS JEUNES 18-20anS une fille de 25ans au petit cul se fait defoncer le cul amateur x gratis amatrices byb3nd4b0ng wmv torrent anal xxx teens...
...video jeunes vieilles amateurs gay trans piss fisting pipi...

Sep 2010
1.4 GB
1 File
2 | 0 Женщины на грани нервного срыва / Mujeres al borde de un ataque de nervios (1988) DVDRip
...Mujeres al borde de un ataque de nervios Год выпуска: 1988 Страна: Испания Жанр: драма / комедия...
... В ролях: Кармен Маура /Carmen Maura/, Антонио Бандерас /Antonio Banderas/, Джульета Серрано /Julieta Serrano/, Росси Де Пальма /Rossy De Palma/, Мария...
...Mujeres al borde de un ataque de nervios...
...De Palma/, Мария Барранко/María Barranco...

Dec 2008
987 MB
3 Files
1 | 0 Cats Video Magazine - Gratis Kassett (1995) [VHSRip]
...Video Magazine - Gratis Kassett (1995) [VHSRip] Screens:...
...Video Magazine - Gratis Kassett (1995) [VHSRip] Screens: http://xxxhost.me/viewer.php?file=us17uu31dpqexa8bbklr.jpg http://xxxhost.me/viewer.php?file=pmzoovhiqivs0zg5s4m6.jpg...
...Video Magazine - Gratis Kassett (1995) [VHSRip] Screens:...

Jun 2014
701 MB
2 Files
0 | 0 Mujeres Al Borde De Un Ataque De Nervios - Women On The Verge Of
...Mujeres al borde de un ataque de nervios (1988) Directed by Pedro Almodóvar Writing credits Pedro Almodóvar (also story) Jean Cocteau (play...
...de Palma --- Marisa María Barranco...
...de Jehová Eduardo Calvo --- Padre de...
...de Andrés López --- Policía I (as Angel de Andrés-López) Fernando Guillén --- Iván Juan Lombardero...

Jul 2006
1.4 GB
3 Files
1 | 0 Mujeres Al Borde De Un Ataque De Nervios

Jan 2011
3.7 GB
18 Files
1 | 0 mujeres al borde de un ataque de nervios(ciclo almodovar)
...DE ASPECTO: 4:3 INFO EXTRA: eliminadas advertencias molestas. MÉTODO...
...DE RIPEO FORMATO: DVD5 => DVD5 COMPRESIÓN: anydvd,remake,sin comprimir. SUBIDA INFO SUBIDA: 15/20 kbs 24h...

Oct 2006
1.9 GB
2 Files
1 | 0 La fuente de las mujeres 2011 [HDRip-AC3][Spanish]
...mujeres vayan a buscar agua, bajo un sol ardiente, a la fuente que nace en lo alto de una montaña. Leila, una joven...
...mujeres una huelga de sexo: no mantendrán relaciones sexuales hasta que los hombres colaboren con ellas en el transporte del agua hasta la aldea. (FILMAFFINITY)...
...de Cannes: Sección oficial a concurso SINOPSIS: En un pequeño pueblo de...
...de Cannes: Sección oficial a concurso SINOPSIS: En un pequeño pueblo de Oriente Medio, la tradición exige que las mujeres vayan a buscar agua...

Sep 2012
356 KB
1 File
1 | 0 Abad Faciolince, Hector - Tratado de culinaria para mujeres tristes [10903] (r1.0).epub

Jul 2014
57.1 MB
1 File
0 | 0 VIDEO DE SEXE VIEUX ET JEUNES une salope aux yeux marrons se prend une bouteille de champagne dans le cul blog amateur de femme video x amateur byb3nd4b0ng.wmv.torrent
...VIDEO DE SEXE VIEUX ET JEUNES une salope aux yeux marrons se prend une bouteille de champagne dans le cul blog amateur de femme video x amateur byb3nd4b0ng wmv...
...video sexe porno anal french facial xxx trans pipi fisting vieilles jeunes amateurs piss gay lesbiennes teens...

Sep 2010
1.5 GB
1 File
12 | 1 Артур и месть Урдалака / Arthur Et La Vengeance De Maltazard (2009) BDRip от HQ-ViDEO
...Релиз от HQ-ViDEO...
...Video Format...
...Video Bitrate .: 1829 kbps            Bits per Pixel...
...Артур и месть Урдалака / Arthur Et La Vengeance De Maltazard / Arthur and the Revenge of Maltazard (2009) BDRip...

Mar 2010
2.3 MB
1 File
0 | 0 Affiliate Elite y Keyword Elite - Como Descargar los Video Tutoriales en espaol GRATIS

Jan 2009
6.3 MB
1 File
0 | 0 (ebook) JUEGOS DE CASINO GRATIS (FREE DOWNLOAD) pdf

Jan 2008
7.2 GB
1 File
0 | 0 Damas Gratis en Vivio Luna Park 10 Años de Oro
...Video ID : 224 (0xE0) Format : MPEG Video Format version : Version 2 Format...
...Video delay : -80ms Stream size : 24.4 MiB (2%) Audio #2 ID...
...Video delay : -80ms Stream size : 16.3 MiB (2%) Audio #3 ID...
...Video delay : -80ms Stream size : 16.3 MiB (2%)...

Sep 2012
113 MB
1 File
0 | 0 O Fantasma de Canterville Demo Gratis VOolume com br zip
...de Canterville, Audibooks em português, Brasil http://www.voolume.com.br Leia de ouvido !...
...de Canterville, Audibooks em português, Brasil http://www.voolume.com.br Leia de ouvido !...

Jun 2007
11.6 MB
1 File
0 | 0 A-Squared Free 2 1 0 12 - Gratis Spyware-Scanner de exe

Nov 2006
37.5 MB
1 File
0 | 0 SISTEMA DE CONTABILIDAD GRATIS PARA WINDOWS XP
... Torrent downloaded from http://thepiratebay.orgSITEMA DE CONTABILIDAD MULTIEMPRESA FULL CONFIGURABLE CON EDITOR DE REPORTES...

Nov 2009
2.6 MB
1 File
0 | 0 Pruebe gratis usenet 1gb sin necesidad de registrarse.zip

Aug 2009