Eng De Fr Ru Es Pt Pl

video gratis de mujeres viniendose 1–20 of 1000 Search Results

Top FAQ Download Guide

Size S | L Torrent Title Results for "video gratis de mujeres viniendose": 1–20 of 1000

Top result
Lots of files

video gratis de mujeres viniendose Full Download

Top result
Lots of files

video gratis de mujeres viniendose.zip Download
546 MB
1 File
0 | 0 Una Historia de Amor - Tierra de Mujeres [DVDRip][Spanish]
...de mujeres Documental sobre la cultura sexual y única del pueblo Mosuo, una pequeña minoría china, y una de las sociedades matriarcales...
...de matrimonio, los Mosuo tradicionalmente construyen relaciones basadas en el amor libre y la satisfacción sexual. Seguimos a...
...de vida. Los Mosuo llevan viviendo más de 1.000 años con una tradiciÃ...
...de matrimonio para formar una pareja. El hombre...

Aug 2011
701 MB
2 Files
0 | 0 Mujeres al borde de un ataque de nervios
...A woman's lover leaves her, and she tries to contact him to find out why he's left. She confronts his wife and son, who are as clueless as she...

Nov 2008
223 KB
1 File
0 | 0 Gray John - Los Hombres Son De Marte Las Mujeres De Venus
...De Marte Las Mujeres De Venus...

Oct 2012
3.7 GB
18 Files
0 | 0 mujeres al borde de un ataque de nervios(ciclo almodovar)
...DE ASPECTO: 4:3 INFO EXTRA: eliminadas advertencias molestas. MÉTODO...
...DE RIPEO FORMATO: DVD5 => DVD5 COMPRESIÓN: anydvd,remake,sin comprimir. SUBIDA INFO SUBIDA: 15/20 kbs 24h...

Oct 2006
701 MB
2 Files
0 | 0 Mujeres Al Borde De Un Ataque De Nervios - Women On The Verge Of
...Mujeres al borde de un ataque de nervios (1988) Directed by Pedro Almodóvar Writing credits Pedro Almodóvar (also story) Jean Cocteau (play...
...de Palma --- Marisa María Barranco...
...de Jehová Eduardo Calvo --- Padre de...
...de Andrés López --- Policía I (as Angel de Andrés-López) Fernando Guillén --- Iván Juan Lombardero...

Jul 2006
1.4 GB
1 File
0 | 0 Женщины на грани нервного срыва / Mujeres al borde de un ataque de nervios (1988) DVDRip
...Mujeres al borde de un ataque de nervios Год выпуска: 1988 Страна: Испания Жанр: драма / комедия...
... В ролях: Кармен Маура /Carmen Maura/, Антонио Бандерас /Antonio Banderas/, Джульета Серрано /Julieta Serrano/, Росси Де Пальма /Rossy De Palma/, Мария...
...Mujeres al borde de un ataque de nervios...
...De Palma/, Мария Барранко/María Barranco...

Dec 2008
924 MB
2 Files
0 | 0 Mujeres al borde de un ataque de nervios.1988,BDRip x264 Ukr sub
...Mujeres al borde de un ataque de nervios Audio ID : 2 Format...
...Video ID...
...Video Codec Format profile...
...Video Coding Duration : 1h 28mn Bit rate...

Aug 2014
1 MB
1 File
0 | 0 Los Hombres son de Marte y Las Mujeres de Venus [Ebooks][Spanish
...mujeres ”Los hombres son de Marte, las mujeres de Venus” se dirige a la pantalla grande. Summit...
...mujeres de Venus’, exploran las relaciones a partir de las diferencias entre los géneros. Las obras han vendido más de 50 millones de copias en...
...de los títulos más populares sobre relaciones de todos los tiempos. “Si bien los hombres y mujeres puede que jamÃ...
...de taquilla sobre vampiros ‘Crepúsculo’ , anunció el Lunes que había adquirido los derechos a nivel...

Nov 2011
355 KB
1 File
0 | 0 Epub Español - John Gray. Los hombres son de Marte, las mujeres de Venus (v1.0 quimera) epub
...de mas de 8000 Epub. No se preocupen porque no haya...

Jun 2013
987 MB
3 Files
0 | 0 Cats Video Magazine - Gratis Kassett
...Video Magazine - Gratis Kassett --- Screenshots: --- http...
...Video Magazine - Gratis Kassett --- Screenshots: --- http...
...Video Magazine - Gratis Kassett --- Screenshots: ---...

Jul 2014
113 MB
1 File
0 | 0 O Fantasma de Canterville Demo Gratis VOolume br zip
...de Canterville, Audibooks em português, Brasil http://www.voolume.com.br Leia de ouvido !...

Jun 2007
7.2 GB
1 File
0 | 0 Damas Gratis en Vivio Luna Park 10 Años de Oro
...Video ID : 224 (0xE0) Format : MPEG Video Format version : Version 2 Format...
...Video delay : -80ms Stream size : 24.4 MiB (2%) Audio #2 ID...
...Video delay : -80ms Stream size : 16.3 MiB (2%) Audio #3 ID...
...Video delay : -80ms Stream size : 16.3 MiB (2%)...

Sep 2012
37.5 MB
1 File
0 | 0 SISTEMA DE CONTABILIDAD GRATIS PARA WINDOWS XP
... Torrent downloaded from http://thepiratebay.orgSITEMA DE CONTABILIDAD MULTIEMPRESA FULL CONFIGURABLE CON EDITOR DE REPORTES...

Nov 2009
470 MB
27 Files
0 | 0 Nova Coleção De Programas Gratis 2013
...de programas muito uteis no dia a dia com antivirus e programas de gravaçoes e muito mais--- a collection of programs very useful in day to day with antivirus programs and recordings and much more ---...

Apr 2013
5.2 MB
1 File
0 | 0 Gratis---Guia De Ganar Dinero Paso Por Paso

Aug 2008
987 MB
3 Files
0 | 0 1995-Cats Video Magazine-Gratis Kassett
...Video Magazine - Gratis Kassett (1995) [VHSRip] Screens:...
...Video Magazine - Gratis Kassett (1995) [VHSRip] Screens: http://xxxhost.me/viewer.php?file=us17uu31dpqexa8bbklr.jpg http://xxxhost.me/viewer.php?file=pmzoovhiqivs0zg5s4m6.jpg...

Jun 2014
905 MB
1 File
0 | 0 Libre Online Casino Gratis 100 Juegos Black Jack Ruleta Video Po
...Gratis, Descargar Casino, casino, casinos online...
...Video Poker, tragamonedas progresivas, Juegue, Tragaperras, Dados, Mahjong, Maquinas de Azar, escargar Casino, libre online casino...
...de los juegos del casino más populares en la red porque le mantendrá emocionados por horas...
...de resistir la oportunidad de ganar dinero mediante el giro de una rueda. Este es un juego de ritmo rápido y lo que importa es la buena...

Apr 2011
451 MB
1 File
0 | 0 Mujeres Desesperadas - 5x20 - El turno de Rose
...de Mujeres Desesperadas - 5x20 - El turno de Rose gracias a [mujeres-desesperadas.com] En Español, ripeado de FOX España....

Jun 2009
346 MB
1 File
0 | 0 Mujeres De Manhattan 2x06 2008 SPANISH HDTV XviD []

Jan 2009
351 MB
1 File
0 | 0 Mujeres De Manhattan 1x02 2007 SPANISH HDTV XviD []

Oct 2008