Eng De Fr Ru Es Pt Pl

viviane araujo mostrando a buceta 1–20 of 1000 Search Results

Top FAQ Download Guide

Size S | L Torrent Title Results for "viviane araujo mostrando a buceta": 1–20 of 1000

Top result
Lots of files

viviane araujo mostrando a buceta Full Download

Top result
Lots of files

viviane araujo mostrando a buceta.zip Download
111 MB
1 File
11471 | 8850 A New Beginning-SKIDROW
...A New Beginning-SKIDROW A New Beginning-SKIDROW A New Beginning-SKIDROW A New Beginning-SKIDROW A New Beginning-SKIDROW...
...A New Beginning-SKIDROW A New Beginning-SKIDROW A New Beginning-SKIDROW A New Beginning-SKIDROW A New Beginning-SKIDROW...

Dec 2013
866 MB
2 Files
10675 | 3789 I Have A Wife London Keyes Karlo Karrera NEW Naughty America December 10 2013 NEW

Dec 2013
6.6 GB
61 Files
0 | 0 60 Videos De Garotas Na WebCam Mostrando a Buceta
...Mostrando a Buceta Size: 6.59 GB Movies: 60...

Jan 2013
2.8 GB
1 File
0 | 0 DVD Voyeur A Stripper dos seus sonhos... Viviane Araujo vol 1_by-mftei
...Viviane Araujo percebe que todos os seus passos estão sendo minuciosamente observados por um misterioso homem, ela começa a gostar do â...
...a todos nós com cenas inesquecíveis....
...Viviane Araujo percebe que todos os seus passos estão sendo minuciosamente observados por um misterioso homem, ela começa a gostar do...
...a todos nós com cenas inesquecíveis....

Nov 2009
95.7 MB
2 Files
0 | 0 Viviane Araujo Video antigo( K A T O )

Dec 2013
143 MB
8 Files
0 | 0 Viviane Araujo - A Stripper dos Seus sonhos_01(H264) 1280x858( K A T O )

Dec 2013
567 MB
24 Files
819 | 326 A Taste of Candy Samples
...Screens: http://4ufrom.me/viewer.php?file=epobncyxdqvi61su2lnz.jpg...
...a collectors dream! Each scene is a magnificent mammary masterpiece! A must see for lovers of enormous, luscious, bouncy and delectably huge breasts, this vivacious video delivers the bra-busting goods!...
...Screens: http://4ufrom.me/viewer.php?file=epobncyxdqvi61su2lnz.jpg...
...Candy Samples, Stacey Donovan, Rikki Blake, Summer Rose, Paul Thomas, Herschel Savage. It\'s the premiere heavy hootered honey in all her go...

May 2011
2.2 GB
2 Files
109 | 2 Спеши любить / A Walk to Remember (2002) DVDRip
...Спеши любить / A Walk to Remember (2002) DVDRip...
...Название: Спеши любить Оригинальное название: A Walk to Remember Год выпуска: 2002 Страна: США Жанр...
...непросто…...
...Аудио III
: 48 kHz, AC3 Dolby Digital, 3/2 (L,C,R,l,r) + LFE ch, ~448 kbps (Оригинал)...

Jul 2010
697 MB
1 File
0 | 0 Viviane Araujo Sexy

Jan 2011
9.1 MB
1 File
0 | 0 Brasileirinhas - Viviane Araujo - Dando O Cu [anal brasil - What an ass]mpeg

Jan 2011
371 MB
1 File
0 | 0 Viviane Araujo Voyer 07 DvDRip (H264) 720x400 - Zagor Lukas
... Scan type : Progressive Bits/(Pixel*Frame) : 0.101 Stream size : 281 MiB (76%) Title : Viviane Araujo Voyer 07( Zagor Lukas )...
...Viviane Araújo dos Santos (Rio de Janeiro, 25 de março de 1975) é uma modelo, dançarina e atriz brasileira. Famosa...
...A...
... Bits/(Pixel*Frame) : 0.101 Stream size : 281 MiB (76%) Title : Viviane Araujo Voyer 07( Zagor Lukas ) Writing library : x264 core 130 r2273...

Jun 2013
3.5 MB
22 Files
3 | 2 Savita Bhabhi Episode 45 Savita Gains A Little Job Security
...a partner that can provide us proper descriptions for music/applications/games....

Aug 2014
979 MB
11 Files
0 | 0 Viviane Araujo DvDRip( x264 AVCHD MKV 1280x720 ) by fantasma Torrent Downloads - download free torrents!
... Stream size : 790 MiB (83%) Title : Viviane Araujo Brazil - by fantasma Writing library : x264 core 130 r2273 b3065e6 Encoding settings : cabac...
...Viviane Araujo DvDRip( x264 AVCHD MKV 1280x720 ) by fantasma...

Apr 2013
332 MB
1 File
2 | 2 [x-art] Ashley S (a Hot Number / 01.30.2014)
...A Hot Number / 01.30.2014) res:720p All I want is love, peace, and happiness...and a gorgeous, delicious girl like Ashley to remind...
...a gem, and Jessy soaks in every minute with her (wouldn't you?!) Now go enjoy the touching, tasting...
..., sucking, and fucking that will turn you on and make you love life (and beautiful erotica!) Screens:...
... http://xxxhost.me/viewer.php?file=rs40kecq5yzjoey14x1v.jpg...

Jan 2014
1.1 GB
17 Files
2 | 3 【片片勃士】【sex8.cc】DVDES-611 传说中的台湾女主播“蔡淑华”下海日本拍A

May 2013
75 MB
1 File
2 | 0 ! Asian Jailbait BANG #020 Ass in a THONG kdquality pedo lolita pthc hussyfan preteen pussy ptsc nimphets novinhas 9yo 10yo 11yo 12yo

Jul 2012
110 MB
462 Files
2 | 0 PTNN Little-Melissa from A little agency sets 1-5
...A LITTLE AGENCY SETS 1-5...

Jul 2008
29.7 MB
48 Files
0 | 0 01.2010 viviane araujo sexyespecial as melhores do ano2009 scansL

Jan 2011
104 MB
3 Files
0 | 0 Viviane Araujo - Sexy.Fev.2012
...Viviane Araujo - Sexy.Fev.2012 A rainha de bateria do Salgueiro, de volta , pra alegria geral da nação. Quer ouvir Marchinhas de carnaval e os Sambas Enredo das Escolas de Samba do Rio de Janeiro, acesse:...

Feb 2012
9.1 MB
1 File
0 | 0 - Brasileirinhas - Viviane Araujo - Dando O Cu anal brasil - Wh
...Viviane Araujo - Dando O Cu [anal brasil - What an ass]mpeg...

Jan 2008