Eng De Fr Ru Es Pt Pl

viviane araujo mostrando a buceta 1–20 of 1000 Search Results

Top FAQ Download Guide

Size S | L Torrent Title Results for "viviane araujo mostrando a buceta": 1–20 of 1000

Top result
Lots of files

viviane araujo mostrando a buceta Full Download

Top result
Lots of files

viviane araujo mostrando a buceta.zip Download
6.6 GB
61 Files
0 | 0 60 Videos De Garotas Na WebCam Mostrando a Buceta
...Mostrando a Buceta Size: 6.59 GB Movies: 60...

Jan 2013
143 MB
8 Files
0 | 0 Viviane Araujo - A Stripper dos Seus sonhos_01(H264) 1280x858( K A T O )

Dec 2013
95.7 MB
2 Files
0 | 1 Viviane Araujo Video antigo( K A T O )

Dec 2013
2.8 GB
1 File
0 | 0 DVD Voyeur A Stripper dos seus sonhos... Viviane Araujo vol 1_by-mftei
...Viviane Araujo percebe que todos os seus passos estão sendo minuciosamente observados por um misterioso homem, ela começa a gostar do â...
...a todos nós com cenas inesquecíveis....
...Viviane Araujo percebe que todos os seus passos estão sendo minuciosamente observados por um misterioso homem, ela começa a gostar do...
...a todos nós com cenas inesquecíveis....

Nov 2009
400 MB
5 Files
0 | 0 Viviane Araujo Voyer 07 DvDRip (H264) 720x400 - by fantasma
...Viviane Araujo Voyer 07(by fantasma)...
...Viviane Araújo dos Santos (Rio de Janeiro, 25 de março de 1975) é uma modelo, dançarina e atriz brasileira...
...A Fazenda . Format : Matroska Format version : Version 2 File size : 371 MiB Duration : 45mn 12s...
...Viviane Araujo Voyer 07(by fantasma) Writing library : x264 core 130 r2273...

Jun 2013
1.1 MB
19 Files
0 | 0 Sexy Clube - Viviane Araujo [JPG]

Jan 2011
697 MB
1 File
0 | 0 Viviane Araujo Sexy

Jan 2011
371 MB
1 File
0 | 0 Viviane Araujo Voyer 07 DvDRip (H264) 720x400 - Zagor Lukas
... Scan type : Progressive Bits/(Pixel*Frame) : 0.101 Stream size : 281 MiB (76%) Title : Viviane Araujo Voyer 07( Zagor Lukas )...
...Viviane Araújo dos Santos (Rio de Janeiro, 25 de março de 1975) é uma modelo, dançarina e atriz brasileira. Famosa...
...A...
... Bits/(Pixel*Frame) : 0.101 Stream size : 281 MiB (76%) Title : Viviane Araujo Voyer 07( Zagor Lukas ) Writing library : x264 core 130 r2273...

Jun 2013
9.1 MB
1 File
0 | 0 Brasileirinhas - Viviane Araujo - Dando O Cu [anal brasil - What an ass]mpeg

Jan 2011
979 MB
11 Files
0 | 0 Viviane Araujo DvDRip( x264 AVCHD MKV 1280x720 ) by fantasma Torrent Downloads - download free torrents!
... Stream size : 790 MiB (83%) Title : Viviane Araujo Brazil - by fantasma Writing library : x264 core 130 r2273 b3065e6 Encoding settings : cabac...
...Viviane Araujo DvDRip( x264 AVCHD MKV 1280x720 ) by fantasma...

Apr 2013
9.1 MB
1 File
0 | 1 - Brasileirinhas - Viviane Araujo - Dando O Cu anal brasil - Wh
...Viviane Araujo - Dando O Cu [anal brasil - What an ass]mpeg...

Jan 2008
29.7 MB
48 Files
0 | 0 01.2010 viviane araujo sexyespecial as melhores do ano2009 scansL

Jan 2011
104 MB
3 Files
0 | 0 Viviane Araujo - Sexy.Fev.2012
...Viviane Araujo - Sexy.Fev.2012 A rainha de bateria do Salgueiro, de volta , pra alegria geral da nação. Quer ouvir Marchinhas de carnaval e os Sambas Enredo das Escolas de Samba do Rio de Janeiro, acesse:...

Feb 2012
200 MB
1 File
0 | 0 Viviane Araujo - Video da Revista Sexy

Jan 2011
199 MB
1 File
0 | 0 Viviane araujo

Jan 2011
689 MB
2 Files
1 | 0 TrannySurprise - Viviane Merillo a What a looker

Feb 2014
700 MB
4 Files
1 | 0 A Girl Like Me The Gwen Araujo Story (Transsexual / Transgender)
...A Girl Like Me: The Gwen Araujo Story (English - 2006) Based on a true story. As a young boy, Eddie Araujo always felt different somehow. She started...
...araujo...
...a lot different, that she was meant to be female and not male. When she finally accepted it and with her mom's eventual support, Eddie...
...a tragic night changed everything. She was killed by 3 teenage boys after they discovered she...

Oct 2008
689 MB
1 File
0 | 0 TrannySurprise - Viviane Merillo – What a looker, NEW February 26
...) Video: h264, yuv420p, 1024x576, 30.00 fps(r) (und) http://www.{spam...
...link removed}s.com/7cjqfrlcekjv/what_a_looker1_big-300_s.jpg.html...
...Widget...
...689.32 MB...

Feb 2014
49 MB
8 Files
0 | 0 Marco Antonio Araujo - 1982 - Quando a Sorte te Solta Um Cisne na Noite Torrent Downloads - download free torrents!
...Araujo - 1982 - Quando a Sorte te Solta Um Cisne na Noite...

May 2013
188 MB
1 File
0 | 0 Loirona brasileira dando a buceta e o rabo
...http://goolpic.com/loirona-brasileira-dando-a-buceta-e-o-rabo-2/ Full thumbnail with run time...
...a-buceta-e-o-rabo/ More Video - http://video.esocialwall.info/...
...Resolution - 352 * 288 Sample Image...
... http://goolpic.com...

Sep 2014