Eng De Fr Ru Es Pt Pl

viviane araujo mostrando a buceta 1–20 of 1000 Search Results

Top FAQ Download Guide

Size S | L Torrent Title Results for "viviane araujo mostrando a buceta": 1–20 of 1000

Top result
Lots of files

viviane araujo mostrando a buceta Full Download

Top result
Lots of files

viviane araujo mostrando a buceta.zip Download
6.6 GB
61 Files
0 | 1 60 Videos De Garotas Na WebCam Mostrando a Buceta
...Mostrando a Buceta Size: 6.59 GB Movies: 60...

Jan 2013
2.8 GB
1 File
1 | 0 DVD Voyeur A Stripper dos seus sonhos...Viviane Araujo vol.
...Torrent downloaded from http://thepiratebay.org...

Nov 2009
143 MB
8 Files
0 | 1 Viviane Araujo A Stripper dos Seus sonhos 01 H264 1280x858 K A T O

Dec 2013
95.7 MB
2 Files
0 | 0 Viviane Araujo Video antigo K A T O

Dec 2013
104 MB
3 Files
1 | 0 Viviane Araujo - Sexy.Fev.2012
...Viviane Araujo - Sexy.Fev.2012 A rainha de bateria do Salgueiro, de volta , pra alegria geral da nação. Quer ouvir Marchinhas de carnaval e os Sambas Enredo das Escolas de Samba do Rio de Janeiro, acesse:...

Feb 2012
400 MB
5 Files
0 | 1 Viviane Araujo Voyer 07 DvDRip (H264) 720x400 - by fantasma
...Viviane Araujo Voyer 07(by fantasma)...
...Viviane Araújo dos Santos (Rio de Janeiro, 25 de março de 1975) é uma modelo, dançarina e atriz brasileira...
...A Fazenda . Format : Matroska Format version : Version 2 File size : 371 MiB Duration : 45mn 12s...
...Viviane Araujo Voyer 07(by fantasma) Writing library : x264 core 130 r2273...

Jun 2013
49 MB
8 Files
1 | 0 Marco Antonio Araujo - 1982 - Quando a Sorte te Solta Um Cisne na Noite
...Brazilian instrumental music (Minas Gerais) Related Torrents torrent name...

May 2013
371 MB
1 File
0 | 2 Viviane Araujo Voyer 07 DvDRip (H264) 720x400 - Zagor Lukas
... Scan type : Progressive Bits/(Pixel*Frame) : 0.101 Stream size : 281 MiB (76%) Title : Viviane Araujo Voyer 07( Zagor Lukas )...
...Viviane Araújo dos Santos (Rio de Janeiro, 25 de março de 1975) é uma modelo, dançarina e atriz brasileira. Famosa...
...A...
... Bits/(Pixel*Frame) : 0.101 Stream size : 281 MiB (76%) Title : Viviane Araujo Voyer 07( Zagor Lukas ) Writing library : x264 core 130 r2273...

Jun 2013
979 MB
11 Files
0 | 0 Viviane Araujo Dvdrip( X264 Avchd Mkv 1280x720 ) By Fantasma

Apr 2013
188 MB
1 File
2 | 2 Loirona brasileira dando a buceta e o rabo

Sep 2014
700 MB
3 Files
0 | 0 A Girl Like Me - The Gwen Araujo Story (2006) TVRip.ENG+PtBR-Esp
...A Girl Like Me: The Gwen Araujo Story (TV 2006) Language/ Idioma de áudio: English Subtitle/ Legenda: PtBR (Brazilian Portuguese) IMDB: http...
...a true story. As a young boy, Eddie Araujo always...
...Araujo Story é um filme baseado em uma história real. Mostra como um garoto, Eddie Araújo, sempre se sentiu diferente de alguma forma. Ele começa a...
...Official site: http://www.mylifetime.com/on-tv/movies/girl-me...

Feb 2012
105 MB
9 Files
0 | 0 Vitor Araujo - A/B (2012) [MP3 VBR V0] [CD]
...No description available...

Oct 2013
556 MB
1 File
1 | 0 A Negacao do Brasil (2000), Br, Joel Zito Araujo, doc, DvdRip ipiau m4v
...A Negacao do Brasil (2000), Br, Joel Zito Araujo, doc, DvdRip.ipiau.m4v...
...A Negação do Brasil O documentário é uma...
...A...
...A Casa...

Jul 2008
700 MB
4 Files
1 | 0 A Girl Like Me The Gwen Araujo Story (Transsexual / Transgender)
...A Girl Like Me: The Gwen Araujo Story (English - 2006) Based on a true story. As a young boy, Eddie Araujo always felt different somehow. She started...
...araujo...
...a lot different, that she was meant to be female and not male. When she finally accepted it and with her mom's eventual support, Eddie...
...a tragic night changed everything. She was killed by 3 teenage boys after they discovered she...

Oct 2008
254 MB
2 Files
10755 | 4341 Once Upon A Time — «The New Neverland» (Once Upon a Time S03E10 HDTV 264 LOL ettv)
...a way to kill Regina for good by using the head of Medusa....

Dec 2013
323 MB
1 File
471 | 2 Атлантида: Конец мира, рождение легенды / Atlantis: End of a World, Birth of a Legend (2011) DVDRip | КПК от Generalfilm
... Атлантида: Конец мира, рождение легенды Оригинальное название: Atlantis: End of a World, Birth of a Legend Год выхода: 2011 Жанр...

Jan 2012
2.1 GB
250 Files
53 | 4 VA - Once upon a time it was a hit (2014) MP3 from NNNB
... 039_Максим - Трудный возраст.mp3 040_Morandi - Angels.mp3 041_J-Five - Find A Way.mp3 042_Руслан Набиев - Поцелуями тает---mp3...
... 062_Crazy Town - Butterfly.mp3 063_Melanie C - Never Be The Same Again.mp3 064_Arash feat Lumidee - Kandi (Radio Edit).mp3 065_Nelly – Just A...
... 135_Серега - Чёрный бумер.mp3 136_Stromae – Alors On Danse (Radio Edit).mp3 137_Katy Perry - I Kissed A Girl.mp3 138_REFLEX - Падали...

Jul 2014
197 MB
2 Files
8454 | 4886 Once Upon A Time — «Ariel» (Once Upon a Time S03E06 HDTV x264 LOL ettv)
...a magical assault on Pan. Meanwhile, Emma and the others learn that Neal...
...a heavy price to free him. And in the fairy tale world that was, Snow White is on the run and meets a...

Dec 2013
243 MB
1 File
199 | 64 A husband and wife invited a young girl for sex

Aug 2010
1.8 GB
1 File
41 | 16 Nessa A, Abby A (????? ?? "Rocco's POV volume #22"

Dec 2012