Eng De Fr Ru Es Pt Pl

viviane araujo mostrando a buceta 1–20 of 1000 Search Results

Top FAQ Download Guide

Size S | L Torrent Title Results for "viviane araujo mostrando a buceta": 1–20 of 1000

Top result
Lots of files

viviane araujo mostrando a buceta Full Download

Top result
Lots of files

viviane araujo mostrando a buceta.zip Download
143 MB
8 Files
0 | 0 Viviane Araujo - A Stripper dos Seus sonhos_01(H264) 1280x858( K A T O )

Dec 2013
95.7 MB
2 Files
0 | 0 Viviane Araujo Video Antigo( K A T O )

Dec 2013
371 MB
1 File
0 | 0 Viviane Araujo Voyer 07 DvDRip (H264) 720x400 - Zagor Lukas
... Scan type : Progressive Bits/(Pixel*Frame) : 0.101 Stream size : 281 MiB (76%) Title : Viviane Araujo Voyer 07( Zagor Lukas )...
...Viviane Araújo dos Santos (Rio de Janeiro, 25 de março de 1975) é uma modelo, dançarina e atriz brasileira. Famosa...
...A...
... Bits/(Pixel*Frame) : 0.101 Stream size : 281 MiB (76%) Title : Viviane Araujo Voyer 07( Zagor Lukas ) Writing library : x264 core 130 r2273...

Jun 2013
979 MB
11 Files
0 | 0 Viviane Araujo DvDRip( x264 AVCHD MKV 1280x720 ) by fantasma
... Stream size : 790 MiB (83%) Title : Viviane Araujo Brazil - by fantasma Writing library : x264 core 130 r2273 b3065e6 Encoding settings : cabac...

Apr 2013
400 MB
5 Files
0 | 0 Viviane Araujo Voyer 07 DvDRip (H264) 720x400 - by fantasma
...Viviane Araujo Voyer 07(by fantasma)...
...Viviane Araújo dos Santos (Rio de Janeiro, 25 de março de 1975) é uma modelo, dançarina e atriz brasileira...
...A Fazenda . Format : Matroska Format version : Version 2 File size : 371 MiB Duration : 45mn 12s...
...Viviane Araujo Voyer 07(by fantasma) Writing library : x264 core 130 r2273...

Jun 2013
632 MB
1 File
0 | 0 A Girl Like Me, Gwen Araujo Story (2006).mp4 Lifetime True Rare
...***READ INFO: Please seed so others can also enjoy this video. I can not upload this file for very long. So be considerate and help share this...

May 2013
49 MB
8 Files
0 | 0 Marco Antonio Araujo - 1982 - Quando a Sorte te Solta Um Cisne na Noite
...Brazilian instrumental music (Minas Gerais) Related Torrents torrent name...

May 2013
689 MB
1 File
0 | 0 TrannySurprise - Viviane Merillo – What a looker, NEW February 26

Feb 2014
556 MB
1 File
0 | 0 A Negacao do Brasil (2000), Br, Joel Zito Araujo, doc, DvdRip.ip
...http://www.adorocinemabrasileiro.com.br/filmes/negacao-do-brasil/negacao-do-brasil.asp...

Jul 2008
700 MB
4 Files
0 | 0 A Girl Like Me The Gwen Araujo Story (Transsexual / Transgender)
...A Girl Like Me: The Gwen Araujo Story (English - 2006) Based on a true story. As a young boy, Eddie Araujo always felt different somehow. She started...
...araujo...
...a lot different, that she was meant to be female and not male. When she finally accepted it and with her mom's eventual support, Eddie...
...a tragic night changed everything. She was killed by 3 teenage boys after they discovered she...

Oct 2008
689 MB
2 Files
0 | 0 TrannySurprise - Viviane Merillo – What a looker [ mp4]

Feb 2014
4.4 MB
2 Files
0 | 0 Astradur Eysteinsson, Vivian Liska - Modernism A Comparative History of Literatures in European Languages[2007]

Feb 2014
1.9 MB
1 File
0 | 0 2005.09 - Viviane Victorette.rar
...playboy brasil...

Sep 2008
42 MB
7 Files
0 | 0 a??e??a??a??a??a??a??a??a??a??a??a??a??a??a??a???a??a??a??a??a??a??

Oct 2012
7 GB
1 File
3 | 0 Дом с паранормальными явлениями / A Haunted House (2013) BDRip 1080p | Лицензия
...Оригинальное название: A Haunted House Год выпуска: 2013 Жанр: Комедия, пародия...
..., Малкольм обращается за помощью к священнику, экстрасенсу и команде охотников за привидениями....
... Файл Качество: BDRip (1080p) Видео: MPEG 4-AVC, 9312 Кбит/с, 1920x1040...

Apr 2013
1.2 GB
1 File
3 | 0 [1080p].18onlygirls - Anjelica, Zoe (a Slow Seduction)

Jul 2012
488 MB
2 Files
0 | 0 SHEMALES GET BAREBACKED VIVIANE RIOS

Mar 2014
46.3 MB
11 Files
0 | 0 BAIXAR CRISTIANO ARAUJO
...TELAO...

Mar 2014
589 MB
16 Files
0 | 0 [GlazedTrannys.com / Tranny.com] - Amanda Araujo!
...Screens: http://imagenova.net/?v...

Jun 2011
46.3 MB
11 Files
0 | 0 CRISTIANO ARAUJO TELAO COLETANIAS

Feb 2014