Eng De Fr Ru Es Pt Pl

viviane araujo mostrando a buceta 1–20 of 1000 Search Results

Top FAQ Download Guide

Size S | L Torrent Title Results for "viviane araujo mostrando a buceta": 1–20 of 1000

Top result
Lots of files

viviane araujo mostrando a buceta Full Download

Top result
Lots of files

viviane araujo mostrando a buceta.zip Download
143 MB
8 Files
0 | 0 Viviane Araujo - A Stripper dos Seus sonhos_01(H264) 1280x858( K A T O )

Dec 2013
2.8 GB
1 File
0 | 1 DVD Voyeur A Stripper dos seus sonhos... Viviane Araujo vol 1_by-mftei
...Viviane Araujo percebe que todos os seus passos estão sendo minuciosamente observados por um misterioso homem, ela começa a gostar do â...
...a todos nós com cenas inesquecíveis....
...Viviane Araujo percebe que todos os seus passos estão sendo minuciosamente observados por um misterioso homem, ela começa a gostar do...
...a todos nós com cenas inesquecíveis....

Nov 2009
95.7 MB
2 Files
0 | 0 Viviane Araujo Video antigo( K A T O )

Dec 2013
6.6 GB
61 Files
0 | 4 60 Videos De Garotas Na WebCam Mostrando a Buceta
...Mostrando a Buceta Size: 6.59 GB Movies: 60...

Jan 2013
400 MB
5 Files
0 | 0 Viviane Araujo Voyer 07 DvDRip (H264) 720x400 - by fantasma
...Viviane Araujo Voyer 07(by fantasma)...
...Viviane Araújo dos Santos (Rio de Janeiro, 25 de março de 1975) é uma modelo, dançarina e atriz brasileira...
...A Fazenda . Format : Matroska Format version : Version 2 File size : 371 MiB Duration : 45mn 12s...
...Viviane Araujo Voyer 07(by fantasma) Writing library : x264 core 130 r2273...

Jun 2013
49 MB
8 Files
1 | 0 Marco Antonio Araujo - 1982 - Quando a Sorte te Solta Um Cisne na Noite
...Brazilian instrumental music (Minas Gerais) Related Torrents torrent name...

May 2013
371 MB
1 File
0 | 0 Viviane Araujo Voyer 07 DvDRip (H264) 720x400 - Zagor Lukas
... Scan type : Progressive Bits/(Pixel*Frame) : 0.101 Stream size : 281 MiB (76%) Title : Viviane Araujo Voyer 07( Zagor Lukas )...
...Viviane Araújo dos Santos (Rio de Janeiro, 25 de março de 1975) é uma modelo, dançarina e atriz brasileira. Famosa...
...A...
... Bits/(Pixel*Frame) : 0.101 Stream size : 281 MiB (76%) Title : Viviane Araujo Voyer 07( Zagor Lukas ) Writing library : x264 core 130 r2273...

Jun 2013
979 MB
11 Files
0 | 0 Viviane Araujo DvDRip( x264 AVCHD MKV 1280x720 ) by fantasma
... Stream size : 790 MiB (83%) Title : Viviane Araujo Brazil - by fantasma Writing library : x264 core 130 r2273 b3065e6 Encoding settings : cabac...

Apr 2013
105 MB
9 Files
0 | 0 Vitor Araujo - A/B (2012) [MP3 VBR V0] [CD]
...No description available...

Oct 2013
104 MB
3 Files
0 | 1 Viviane Araujo - Sexy.Fev.2012
...Viviane Araujo - Sexy.Fev.2012 A rainha de bateria do Salgueiro, de volta , pra alegria geral da nação. Quer ouvir Marchinhas de carnaval e os Sambas Enredo das Escolas de Samba do Rio de Janeiro, acesse:...

Feb 2012
700 MB
4 Files
1 | 0 A Girl Like Me The Gwen Araujo Story (Transsexual / Transgender)
...A Girl Like Me: The Gwen Araujo Story (English - 2006) Based on a true story. As a young boy, Eddie Araujo always felt different somehow. She started...
...araujo...
...a lot different, that she was meant to be female and not male. When she finally accepted it and with her mom's eventual support, Eddie...
...a tragic night changed everything. She was killed by 3 teenage boys after they discovered she...

Oct 2008
100 MB
1 File
33 | 61 Shemale Slumber - Patricia Araujo
...a boneca é a maior "Gata"......
...a boneca é a maior \"Gata\"......

Aug 2010
700 MB
1 File
0 | 1 A Girl Like Me: The Gwen Araujo Story (2006) (TV) DVD Rip
...Araujo was born Eddie Araujo. But as she got older she started seeing that she was more of a female then a male. So she changed her...
...a male. When she was 17 years old she was killed by 3 teenage boys after they discovered she was a...
...a grave. Two of the boys were convicted of second-degree murder, and one boy plead out...
...a hate crime and none of the boys were convicted of one....

May 2007
188 MB
1 File
0 | 0 Loirona brasileira dando a buceta e o rabo
...http://goolpic.com/loirona-brasileira-dando-a-buceta-e-o-rabo-2/ Full thumbnail with run time...
...a-buceta-e-o-rabo/ More Video - http://video.esocialwall.info/...
...Resolution - 352 * 288 Sample Image...
... http://goolpic.com...

Sep 2014
698 MB
1 File
0 | 0 A Girl Like Me The Gwen Araujo Story Gy?lölt másság (Agnieszka Holland) [2006] a

May 2008
254 MB
2 Files
10755 | 4341 Once Upon A Time — «The New Neverland» (Once Upon a Time S03E10 HDTV 264 LOL ettv)
...a way to kill Regina for good by using the head of Medusa....

Dec 2013
1.8 GB
1 File
51 | 25 Nessa A, Abby A (????? ?? "Rocco's POV volume #22"

Dec 2012
175 MB
1 File
23 | 3 A Light Touch (Elisa A) (2012)
...: A Light Touch Жанр: Close Ups, Shaved, Glamour, Breasts, Blondes В ролях: Elisa A Описание: Смотрим...
... Скриншоты:...
... Альтернатива...

Oct 2012
55.8 MB
1 File
13 | 0 HASLO 'up4Audioksiazki!' [tnttorrent info] Sikirycki Igor - Bajki na dobranoc czyta M.Kula - A Lopacka - M Florek - A Ochota

Jan 2014
632 MB
1 File
0 | 0 A Girl Like Me Gwen Araujo Story 2006 mp4 Lifetime True Rare
...***READ INFO: Please seed so others can also enjoy this video. I can not upload this file for very long. So be considerate and help share this...

May 2013